+ zidekz.info »  :::: Dubbed Zone (Dubbed English in Hindi) » English Movies Dubbed in Hindi » High Resolution Movies
|- The Jackal (1997) 1080p BluRay x264 Dual Audio [Hindi - English] DD5.1 - Esub ~ Ranvijay


The Jackal (1997) 1080p BluRay x264 Dual Audio [Hindi - English] DD5.1 - Esub ~ Ranvijay

0 Members and 1 Guest are viewing this topic.

February 13, 2018, 04:19:53 PM
  • Global Moderator
  • Legend Member
  • *****
  • Topic Author
  • Thank You: 5108
  • Reputation: 1059
  • Activity:
    100%
  • Country: in
  • Posts: 3770
  • Topics: 3151
  • Join Date: Jan 2014
  • ıllıllı ѕмoĸιng ιѕ good ғor нealтн ıllıllı :)




The Jackal (1997) 1080p BluRay x264 Dual Audio [Hindi - English] DD5.1 - Esub ~ Ranvijay

Thanks To Rajput For Hindi Audio

Quote
Format                                   : Matroska
Format version                           : Version 4 / Version 2
File size                                : 4.54 GiB
Duration                                 : 2 h 4 min
Overall bit rate                         : 5 221 kb/s
Movie name                               : The Jackal (1997) 1080p BluRay x264 Dual Audio [Hindi - English] DD5.1 - Esub ~ Ranvijay

Video
Duration                                 : 2 h 4 min
Bit rate                                 : 4 581 kb/s
Width                                    : 1 920 pixels
Height                                   : 816 pixels
Display aspect ratio                     : 2.35:1
Frame rate mode                          : Constant
Frame rate                               : 23.976 FPS
Stream size                              : 3.98 GiB (88%)
Title                                    : ~Ranvijay~
Language                                 : English
Default                                  : Yes
Forced                                   : No

Audio #1
ID                                       : 3
Format                                   : E-AC-3
Format/Info                              : Enhanced Audio Coding 3
Codec ID                                 : A_EAC3
Duration                                 : 2 h 4 min
Bit rate mode                            : Constant
Bit rate                                 : 192 kb/s
Channel(s)                               : 6 channels
Channel positions                        : Front: L C R, Side: L R, LFE
Sampling rate                            : 48.0 kHz
Frame rate                               : 187.500 FPS (256 SPF)
Compression mode                         : Lossy
Stream size                              : 171 MiB (4%)
Title                                    : ~Ranvijay~
Language                                 : Hindi
Service kind                             : Complete Main
Default                                  : Yes
Forced                                   : No

Audio #2
ID                                       : 4
Format                                   : AC-3
Format/Info                              : Audio Coding 3
Codec ID                                 : A_AC3
Duration                                 : 2 h 4 min
Bit rate mode                            : Constant
Bit rate                                 : 448 kb/s
Channel(s)                               : 6 channels
Channel positions                        : Front: L C R, Side: L R, LFE
Sampling rate                            : 48.0 kHz
Frame rate                               : 31.250 FPS (1536 SPF)
Bit depth                                : 16 bits
Compression mode                         : Lossy
Stream size                              : 399 MiB (9%)
Title                                    : ~Ranvijay~
Language                                 : English
Service kind                             : Complete Main
Default                                  : No
Forced                                   : No

Text
ID                                       : 2
Format                                   : UTF-8
Codec ID                                 : S_TEXT/UTF8
Codec ID/Info                            : UTF-8 Plain Text
Duration                                 : 1 h 56 min
Bit rate                                 : 41 b/s
Count of elements                        : 975
Stream size                              : 35.5 KiB (0%)
Title                                    : ~Ranvijay~
Language                                 : English
Default                                  : Yes
Forced                                   : No

Menu
00:00:00.000                             : :Chapter 1
00:07:39.542                             : :Chapter 2
00:14:37.793                             : :Chapter 3
00:18:19.181                             : :Chapter 4
00:22:23.133                             : :Chapter 5
00:29:08.163                             : :Chapter 6
00:32:05.548                             : :Chapter 7
00:38:56.959                             : :Chapter 8
00:43:28.772                             : :Chapter 9
00:51:44.684                             : :Chapter 10
01:01:30.019                             : :Chapter 11
01:08:13.172                             : :Chapter 12
01:17:55.420                             : :Chapter 13
01:30:36.264                             : :Chapter 14
01:45:17.644                             : :Chapter 15
01:56:25.395                             : :Chapter 16
02:04:18.909                             : :Chapter 17











:download:

Quote

File Leeched & Uploaded From




Don't walk as you are king, walk as you don't care who the king is....!!
Never argue with an idiot. They drag you down to their level and then beat you with experience?

Share this topic on FacebookShare this topic on GoogleShare this topic on MySpaceShare this topic on TwitterShare this topic on Yahoo




Don't walk as you are king, walk as you don't care who the king is....!!

Thanks given by:


February 13, 2018, 05:54:57 PM
Reply #1
  • Addic7ed
  • Special Member
  • ****
  • Thank You: 228
  • Reputation: 71
  • Activity:
    100%
  • Country: np
  • Posts: 664
  • Topics: 396
  • Join Date: May 2017
  • #Me

February 13, 2018, 07:12:07 PM
Reply #2
  • Devoted Member
  • **
  • Thank You: 0
  • Reputation: 0
  • Activity:
    21.2%
  • Posts: 122
  • Topics: 0
  • Join Date: Nov 2013
  • ShareSpark Member

February 13, 2018, 07:42:57 PM
Reply #3
  • Royal Member
  • ****
  • Thank You: 178
  • Reputation: 78
  • Activity:
    26.6%
  • Country: sa
  • Posts: 1021
  • Topics: 100
  • Join Date: Jan 2017
  • ShareSpark Member

February 13, 2018, 08:44:56 PM
Reply #4
  • Senior Member
  • ***
  • Thank You: 0
  • Reputation: 7
  • Activity:
    61%
  • Country: au
  • Posts: 292
  • Topics: 0
  • Join Date: Oct 2017
  • ShareSpark Member

Tags:
 

Related Topics





Back to top